Batch Index du Forum
S’enregistrerRechercherFAQMembresGroupesConnexion
Répondre au sujet Page 1 sur 1
parsing
Auteur Message
Répondre en citant
Message parsing 
hello,

j'ai un fichier qui a cette allure:

Code:
Stream #0.1: Video: WVP2 / 0x32505657, 320x240, 6 kb/s, 30.00 tb(r)Code :
Stream #0.1: Video: wmv3, yuv420p,drooping,stoping,87.25,98-965,2554, 320x240, 400 kb/s, 00.00 tb(r)Code
Stream #0.1: Video: wmv3, yuv420p, 320x240, 400 kb/s, 29.97 tb(r)Code :
Stream #0.0[0x1e0]: Video: mpeg1video, yuv420p, 352x288 [PAR 1:1 DAR 11:9], 1024 kb/s, 25.00 tb(r)
..etc


je veux extraire dans un fichier de sortie les numeros de l'avant-dernier champ pour avoir un fichier de sortie:

Code:
30.00
00.00
29.97
25.00




Message Publicité 
PublicitéSupprimer les publicités ?


Répondre en citant
Message parsing 
Bonjour
une boucle for avec un find devrait faire l'affaire




______________________________________________________
Faites paraitre votre batch sur BatchClipboard
Visiter le site web du posteur
Répondre en citant
Message parsing 
Bonjour
le problème dans tes lignes c'est que tu as différents tokens donc difficile de traiter les lignes uniformément




______________________________________________________
Faites paraitre votre batch sur BatchClipboard
Visiter le site web du posteur
Répondre en citant
Message parsing 
Bonjour Laddy et merci de m'avoir aider,

Laddy a écrit:

le problème dans tes lignes c'est que tu as différents tokens donc difficile de traiter les lignes uniformément




c'est ça le gros du problème, les champs ne sont pas identiques ?! n' ya t'il pas une solution alors ?



Répondre en citant
Message parsing 
Change de langage peut être




______________________________________________________
Faites paraitre votre batch sur BatchClipboard
Visiter le site web du posteur
Répondre en citant
Message parsing 
Laddy a écrit:
Change de langage peut être

merci encore Laddy..

t'as une idée vers ou dois-je m'orienter ? ...



Répondre en citant
Message parsing 
Je pense que VBS tu devrais pouvoir y arriver




______________________________________________________
Faites paraitre votre batch sur BatchClipboard
Visiter le site web du posteur
Message parsing 


Montrer les messages depuis:
Répondre au sujet Page 1 sur 1
  



Index | créer un forum | Forum gratuit d’entraide | Annuaire des forums gratuits | Signaler une violation | Conditions générales d'utilisation
Copyright 2008 - 2016 // Batch